Unprocessed WTV to WTV


(John) #1

I have WTV files in MCE and was just trying to remove the commercials. After going thru 5 shows 2 of them had perfect sound, but no video. Video was blank. Logs included for one of them.

JRSaturday Night Live_WMAQDT_2018_04_07_22_27_00.wtv-Convert WTV-2018-04-12T17-18-12.0234911-05-00.log (1.1 MB)

JR


(Goose) #2

Your logs show there is a video stream:

2018-04-12T17:36:02 MCEBuddy.AppWrapper.Base --> Duration: 01:07:20.40, start: 0.000000, bitrate: 3981 kb/s
2018-04-12T17:36:02 MCEBuddy.AppWrapper.Base --> Stream #0:0[0x2]: Audio: ac3 ([0] [0][0] / 0x2000), 48000 Hz, 5.1(side), fltp, 384 kb/s
2018-04-12T17:36:02 MCEBuddy.AppWrapper.Base --> Stream #0:1[0x3]: Video: h264 (High) (H264 / 0x34363248), yuv420p(progressive), 1280x720 [SAR 1:1 DAR 16:9], Closed Captions, 59.94 fps, 59.94 tbr, 10000k tbn, 119.88 tbc

Sounds like you may have a playback issue, possibly your player or codecs


(John) #3

Most likely not a codec issue or one I can remediate or considering this is WTV format should have to. If there is video it’s black. I have had MCE running with my XBox’s for 13 years or more with no issue. The original video is fine however the one output from MCEBuddy with the commercials removed is well, what it is. I’m having other issues with MCEBuddy and it’s conversion techniques but will put those in a different thread as it’s not a blank screen issue but more of a frame rate one.

Thanks.

JR


(Goose) #4

If you’re trying to playback converted h.264 WTV on XBox, it won’t play. It’s a known issue, see the known issues post:


(John) #5

So are you saying MCEBuddy’s conversion to H.264 in WTV won’t work or Xbox 360 in general won’t play H.264? I know it can on the initial recording because after some update MCE encodes all their WTV files in H264 now.

Thanks.

JR