The Royal Variety Performance

(John) #1

I downloaded the Royal Variety Performance from 2016. It was labeled S1E1 - Episode 1.mp4. Should have been S1E88 - Episode 88.mp4. Any idea why it found out the wrong info? Log below:

INFORMATION> --> Starting conversion - DEBUG MESSAGES
INFORMATION> --> Windows OS Version -> Microsoft Windows NT 6.1.7601 Service Pack 1 (WIN_7_2008_SERVER_R2, Professional)
INFORMATION> --> Windows Platform -> 64 Bit
INFORMATION> --> MCEBuddy Build Platform -> 64 Bit
INFORMATION> --> MCEBuddy Build Version : 2.4.10.1
INFORMATION> --> MCEBuddy Build Date : 04/08/2019 16:00:02
INFORMATION> --> MCEBuddy Running as Service : True
INFORMATION> --> Domain Name -> 
User Name -> Guest
Password -> 
Wake Hour -> -1
Wake Minute -> -1
Start Hour -> -1
Start Minute -> -1
Stop Hour -> -1
Stop Minute -> -1
Days of Week -> Sunday,Monday,Tuesday,Wednesday,Thursday,Friday,Saturday
Max Concurrent Jobs -> 1
Enable Job Logs -> True
Log Level -> 3
Log Keep Days -> 15
Use Recycle Bin -> False
Delete Manually/CLI added Original -> False
Archive Manually/CLI added Original -> False
Sync Converted -> False
Allow Sleep During Conversions -> True
Pause Conversion on Battery Power -> True
Send eMails -> False
eMail settings -> Send eMail Settings -> SMTP Server -> 
Port -> 25
SSL -> False
User Name -> 
Password -> 
From -> 
To -> 
Bcc -> 

eMail On Success -> True
eMail On Failure -> True
eMail On Cancellation -> True
eMail On Start -> True
eMail On Download Failure -> True
eMail On Queueing -> True
Custom subject for Successful conversion -> 
Custom subject for Failed conversion -> 
Custom subject for Cancelled conversion -> 
Custom subject for Start of conversion -> 
Custom subject for Download Failure -> 
Custom subject for Queueing conversion -> 
Skip eMail Body for notifications -> False

Locale -> en-US
Temp Working Path -> D:\Conversion\1 - Pre
Archive Folder -> 
Failed Folder -> 
Space Check -> True
Custom Comskip Path -> 
Custom profiles.conf -> 
App Hang Timeout -> 300
Scan New Files Poll Period -> 60
Process Priority -> High
CPU Affinity -> 0
Engine Running -> True
Subtitle Cut Segment Incremental Offset -> 0
Minimum Segment Size (seconds) -> 20
Local Server Port -> 23332
UPnP Enabled -> False
Firewall Exception Enabled -> False

INFORMATION> --> Task -> Convert Sonarr
Profile -> WMV High Quality
Source File -> D:\DuckieTVFiles\The.Royal.Variety.Performance.2016.12.13.EN.SUB.WEBRIP.[MPup]\The.Royal.Variety.Performance.2016.12.13.EN.SUB.WEBRIP.[MPup].mp4
Relative Source Path -> The.Royal.Variety.Performance.2016.12.13.EN.SUB.WEBRIP.[MPup]
Destination Path -> D:\DuckieTVShows
Working Path -> D:\Conversion\temp\working0
Fallback Destination -> False
Skip ReProcessing -> True
Check Reprocessing History -> True
Auto Increment Filename -> False
Add to iTunes Library -> False
Add to WMP Library -> False
Max Width -> 1920
Quality Multipltier -> 1
FPS -> 
Auto DeInterlacing -> True
Prefer Hardware Encoding -> False
Volume Multipltier -> 0
DRC -> True
Force Stereo -> False
Encoder Select Best Audio Track -> True
Profile Audio Language -> ENG
Audio Offset -> 0
Start Trim -> 0
End Trim -> 0
Closed Captions -> 
Closed Captions Offset -> 2.5
Embed Subtitles -> False
Embed Chapters -> False
Commercial Removal -> None
Custom Comskip INI Path -> C:\Program Files\MCEBuddy2x\comskip\comskip.ini
Search Ad markers from chapters -> False
Task Commercial Skip Cut -> False
Keep Advertisements -> False
Download Series Details -> True
Download Banner -> True
Overwrite Title from Internet -> False
Prioritize matching by Original Broadcast Date -> False
Force Show Type -> Default
Write Metadata -> True
Rename by Series -> True
Alt Rename by Series -> False
Custom Rename by Series -> %showname%\Season %season%\S%season%E%episode% - Episode %episode%
Rename Only -> True
File Selection Pattern -> ~*.mkv
Show Selection Pattern -> 
Channel Selection Pattern -> 
Show Type Selection -> Default
Codec Type Selection -> Any
DRM Type Selection -> All
File Size Comparator -> LessThan
File Size Threshold -> 0
Monitor Tasks Selection -> Manual/CLI files,Sonarr Conversion
Insert at Top of Queue -> False
Extract XML -> False
Disable Cropping -> False
Skip Copying Original File for Backup -> False
Skip Remuxing Original File to TS -> False
Ignore Copy Protection -> False
TiVO MAK Key -> 
Domain Name -> 
User Name -> 
Password -> 
Task Enabled -> True

INFORMATION> --> Max Concurrent Jobs -> 1
INFORMATION> --> Monitor Root Relative SubFolder Path -> The.Royal.Variety.Performance.2016.12.13.EN.SUB.WEBRIP.[MPup]
INFORMATION> --> Commercial Skip Cut (profile (CommercialSkipCut) + task) -> True
INFORMATION> --> Auto DeInterlacing (profile (AutoDeinterlace) + task) -> True
INFORMATION> --> Pre-Conversion Commercial Remover (PreConversionCommercialRemover) -> True
INFORMATION> --> Copy LOG File (CopyLogFile) -> False
INFORMATION> --> Copy PROPERTIES file (CopyPropertiesFile) -> False
INFORMATION> --> Free Space Check -> True
INFORMATION> --> Locale Language -> ENG
INFORMATION> --> .NET Framework Version -> 4.0, Service Pack -> 0
INFORMATION> 2019-06-01T08:05:47 MCEBuddy.Engine.ConversionJob --> Current System language is English (United States) (eng)
INFORMATION> 2019-06-01T08:05:47 MCEBuddy.Engine.ConversionJob --> Converting file -> D:\DuckieTVFiles\The.Royal.Variety.Performance.2016.12.13.EN.SUB.WEBRIP.[MPup]\The.Royal.Variety.Performance.2016.12.13.EN.SUB.WEBRIP.[MPup].mp4
--> Dumping complete information about the file D:\DuckieTVFiles\The.Royal.Variety.Performance.2016.12.13.EN.SUB.WEBRIP.[MPup]\The.Royal.Variety.Performance.2016.12.13.EN.SUB.WEBRIP.[MPup].mp4
2019-06-01T08:05:47 MCEBuddy.AppWrapper.Base --> Launching process C:\Program Files\MCEBuddy2x\ffmpeg\ffprobe.exe
2019-06-01T08:05:47 MCEBuddy.AppWrapper.Base --> Process arguments  -hide_banner -probesize 100M -analyzeduration 300M -i "D:\DuckieTVFiles\The.Royal.Variety.Performance.2016.12.13.EN.SUB.WEBRIP.[MPup]\The.Royal.Variety.Performance.2016.12.13.EN.SUB.WEBRIP.[MPup].mp4"
2019-06-01T08:05:47 MCEBuddy.AppWrapper.Base --> UI Session Admin Process : False
2019-06-01T08:05:47 MCEBuddy.AppWrapper.Base --> Setting process priority to AboveNormal
2019-06-01T08:05:47 MCEBuddy.AppWrapper.Base --> [mov,mp4,m4a,3gp,3g2,mj2 @ 0000000001602100] stream 0, timescale not set
2019-06-01T08:05:47 MCEBuddy.AppWrapper.Base --> Input #0, mov,mp4,m4a,3gp,3g2,mj2, from 'D:\DuckieTVFiles\The.Royal.Variety.Performance.2016.12.13.EN.SUB.WEBRIP.[MPup]\The.Royal.Variety.Performance.2016.12.13.EN.SUB.WEBRIP.[MPup].mp4':
2019-06-01T08:05:47 MCEBuddy.AppWrapper.Base -->   Metadata:
2019-06-01T08:05:47 MCEBuddy.AppWrapper.Base -->     major_brand     : isom
2019-06-01T08:05:47 MCEBuddy.AppWrapper.Base -->     minor_version   : 512
2019-06-01T08:05:47 MCEBuddy.AppWrapper.Base -->     compatible_brands: isomiso2avc1mp41
2019-06-01T08:05:47 MCEBuddy.AppWrapper.Base -->     encoder         : Lavf57.25.100
2019-06-01T08:05:47 MCEBuddy.AppWrapper.Base -->     media_type      : 10
2019-06-01T08:05:47 MCEBuddy.AppWrapper.Base -->     network         : ITV
2019-06-01T08:05:47 MCEBuddy.AppWrapper.Base -->     show            : The Royal Variety Performance
2019-06-01T08:05:47 MCEBuddy.AppWrapper.Base -->     season_number   : 1
2019-06-01T08:05:47 MCEBuddy.AppWrapper.Base -->     episode_sort    : 1
2019-06-01T08:05:47 MCEBuddy.AppWrapper.Base -->     episode_id      : The Royal Variety Performance 2016
2019-06-01T08:05:47 MCEBuddy.AppWrapper.Base -->     title           : The Royal Variety Performance 2016 - Episode 1
2019-06-01T08:05:47 MCEBuddy.AppWrapper.Base -->     comment         : David Walliams hosts this year's Royal Variety Performance. Featuring performances by Barry Gibb, Sting, Robbie Williams, Gary Barlow, Sheridan Smith, Emeli Sande, DNCE and ABC.
2019-06-01T08:05:47 MCEBuddy.AppWrapper.Base -->     description     : David Walliams hosts this year's Royal Variety Performance. Featuring performances by Barry Gibb, Sting, Robbie Williams, Gary Barlow, Sheridan Smith, Emeli Sande, DNCE and ABC.
2019-06-01T08:05:47 MCEBuddy.AppWrapper.Base -->     synopsis        : David Walliams hosts this year's Royal Variety Performance. Featuring performances by Barry Gibb, Sting, Robbie Williams, Gary Barlow, Sheridan Smith, Emeli Sande, DNCE and ABC.
2019-06-01T08:05:47 MCEBuddy.AppWrapper.Base -->     lyrics          : David Walliams hosts this year's Royal Variety Performance. Featuring performances by Barry Gibb, Sting, Robbie Williams, Gary Barlow, Sheridan Smith, Emeli Sande, DNCE and ABC.
2019-06-01T08:05:47 MCEBuddy.AppWrapper.Base -->     artist          : ITV
2019-06-01T08:05:47 MCEBuddy.AppWrapper.Base -->   Duration: 02:02:01.77, start: 0.000000, bitrate: 1510 kb/s
2019-06-01T08:05:47 MCEBuddy.AppWrapper.Base -->     Stream #0:0(und): Video: h264 (High) (avc1 / 0x31637661), yuv420p, 896x504 [SAR 1:1 DAR 16:9], 1408 kb/s, 25 fps, 25 tbr, 16k tbn, 50 tbc (default)
2019-06-01T08:05:47 MCEBuddy.AppWrapper.Base -->     Metadata:
2019-06-01T08:05:47 MCEBuddy.AppWrapper.Base -->       handler_name    : VideoHandler
2019-06-01T08:05:47 MCEBuddy.AppWrapper.Base -->     Stream #0:1(und): Audio: aac (LC) (mp4a / 0x6134706D), 48000 Hz, stereo, fltp, 96 kb/s (default)
2019-06-01T08:05:47 MCEBuddy.AppWrapper.Base -->     Metadata:
2019-06-01T08:05:47 MCEBuddy.AppWrapper.Base -->       handler_name    : SoundHandler
2019-06-01T08:05:47 MCEBuddy.AppWrapper.Base -->     Stream #0:2: Video: mjpeg (Baseline), yuvj420p(pc, bt470bg/unknown/unknown), 640x360 [SAR 96:96 DAR 16:9], 90k tbr, 90k tbn, 90k tbc
--> Process exited with code 0
INFORMATION> 2019-06-01T08:05:49 MCEBuddy.Engine.ConversionJob --> Running custom commands
2019-06-01T08:05:49 MCEBuddy.Transcode.CustomCommand --> Custom command parameters read ->  
PreMetaCustomCommandPath =  
PreMetaCustomCommandParameters =  
PreMetaCustomCommandHangPeriod = 300 
PreMetaCustomCommandCritical = False 
PreMetaCustomCommandUISession = False 
PreMetaCustomCommandShowWindow = True 
PreMetaCustomCommandExitCodeCheck = False
INFORMATION> 2019-06-01T08:05:49 MCEBuddy.Transcode.CustomCommand --> No custom commands found
2019-06-01T08:05:49 MCEBuddy.Engine.ConversionJob --> Finished pre metadata custom command, source file size [KB] 1,349,657.00
INFORMATION> 2019-06-01T08:05:49 MCEBuddy.Engine.ConversionJob --> Getting show information and banner from Internet sources
2019-06-01T08:05:49 MCEBuddy.MetaData.VideoMetaData --> Extracting metadata from file -> D:\DuckieTVFiles\The.Royal.Variety.Performance.2016.12.13.EN.SUB.WEBRIP.[MPup]\The.Royal.Variety.Performance.2016.12.13.EN.SUB.WEBRIP.[MPup].mp4
INFORMATION> 2019-06-01T08:05:49 MCEBuddy.MetaData.VideoMetaData --> Extracting Generic Tags
INFORMATION> 2019-06-01T08:05:49 MCEBuddy.MetaData.VideoMetaData --> Trying to extract Artwork from file
INFORMATION> 2019-06-01T08:05:49 MCEBuddy.MetaData.VideoMetaData --> Read Tags: MPEG4 file detected using AppleTag
2019-06-01T08:05:49 MCEBuddy.MetaData.VideoMetaData --> Looking for Season/Episode information in text
2019-06-01T08:05:49 MCEBuddy.MetaData.VideoMetaData --> Extracted Generic Tags: Title: The Royal Variety Performance
SubTitle: The Royal Variety Performance 2016 - Episode 1
Description: David Walliams hosts this year's Royal Variety Performance. Featuring performances by Barry Gibb, Sting, Robbie Williams, Gary Barlow, Sheridan Smith, Emeli Sande, DNCE and ABC.
Network: ITV
Network Affiliate: 
Parental Rating: 
Media Credits: ITV
Genres: 
Season: 1
Episode: 1
Banner: C:\Program Files\MCEBuddy2x\cache\The Royal Variety Performance 2016 - Episode 1-extract.jpg
Banner URL: 
IMDB Id: 
MovieDB Id: 
TVDB Id: 
Is Show Movie: False
Is Show Sports: False
OriginalBroadcastDateTime: 0001-01-01T00:00:00
RecordedDateTime: 0001-01-01T00:00:00
SeriesPremiereDate: 0001-01-01T00:00:00
CopyProtected: False
SageTV FileID: 
SageTV MediaFileID: 

2019-06-01T08:05:49 MCEBuddy.MetaData.VideoMetaData --> Video Tags extracted -> 
Title: The Royal Variety Performance
SubTitle: The Royal Variety Performance 2016 - Episode 1
Description: David Walliams hosts this year's Royal Variety Performance. Featuring performances by Barry Gibb, Sting, Robbie Williams, Gary Barlow, Sheridan Smith, Emeli Sande, DNCE and ABC.
Network: ITV
Network Affiliate: 
Parental Rating: 
Media Credits: ITV
Genres: 
Season: 1
Episode: 1
Banner: C:\Program Files\MCEBuddy2x\cache\The Royal Variety Performance 2016 - Episode 1-extract.jpg
Banner URL: 
IMDB Id: 
MovieDB Id: 
TVDB Id: 
Is Show Movie: False
Is Show Sports: False
OriginalBroadcastDateTime: 0001-01-01T00:00:00
RecordedDateTime: 0001-01-01T00:00:00
SeriesPremiereDate: 0001-01-01T00:00:00
CopyProtected: False
SageTV FileID: 
SageTV MediaFileID: 

2019-06-01T08:05:49 MCEBuddy.MetaData.VideoMetaData --> Trying to match nPVR/SiliconDust series showname -> The.Royal.Variety.Performance.2016.12.13.EN.SUB.WEBRIP.[MPup]
2019-06-01T08:05:49 MCEBuddy.MetaData.VideoMetaData --> Looking for Season/Episode information in text
2019-06-01T08:05:49 MCEBuddy.MetaData.VideoMetaData --> Trying to match Emby series showname -> The.Royal.Variety.Performance.2016.12.13.EN.SUB.WEBRIP.[MPup]
2019-06-01T08:05:49 MCEBuddy.MetaData.VideoMetaData --> Looking for Title/Subtitle/OriginalBroadcastDT information in Emby text
2019-06-01T08:05:49 MCEBuddy.MetaData.VideoMetaData --> Trying to match nPVR movie showname -> The.Royal.Variety.Performance.2016.12.13.EN.SUB.WEBRIP.[MPup]
2019-06-01T08:05:49 MCEBuddy.MetaData.VideoMetaData --> Trying to extract generic nPVR filename metadata -> The.Royal.Variety.Performance.2016.12.13.EN.SUB.WEBRIP.[MPup]
2019-06-01T08:05:49 MCEBuddy.MetaData.VideoMetaData --> Invalid generic nPVR filename
2019-06-01T08:05:49 MCEBuddy.MetaData.VideoMetaData --> Trying to extract generic TV Mosaic filename metadata -> The.Royal.Variety.Performance.2016.12.13.EN.SUB.WEBRIP.[MPup]
2019-06-01T08:05:49 MCEBuddy.MetaData.VideoMetaData --> Invalid generic TV Mosaic filename
2019-06-01T08:05:49 MCEBuddy.MetaData.VideoMetaData --> Looking for Season/Episode information in text
2019-06-01T08:05:49 MCEBuddy.MetaData.VideoMetaData --> Video Tags extracted from file/name metadata -> 
Title: The Royal Variety Performance
SubTitle: The Royal Variety Performance 2016 - Episode 1
Description: David Walliams hosts this year's Royal Variety Performance. Featuring performances by Barry Gibb, Sting, Robbie Williams, Gary Barlow, Sheridan Smith, Emeli Sande, DNCE and ABC.
Network: ITV
Network Affiliate: 
Parental Rating: 
Media Credits: ITV
Genres: 
Season: 1
Episode: 1
Banner: C:\Program Files\MCEBuddy2x\cache\The Royal Variety Performance 2016 - Episode 1-extract.jpg
Banner URL: 
IMDB Id: 
MovieDB Id: 
TVDB Id: 
Is Show Movie: False
Is Show Sports: False
OriginalBroadcastDateTime: 0001-01-01T00:00:00
RecordedDateTime: 0001-01-01T00:00:00
SeriesPremiereDate: 0001-01-01T00:00:00
CopyProtected: False
SageTV FileID: 
SageTV MediaFileID: 

2019-06-01T08:05:49 MCEBuddy.MetaData.VideoMetaData --> Checking for metadata title and series correction
INFORMATION> 2019-06-01T08:05:49 MCEBuddy.MetaData.VideoMetaData --> Downloading Series details
2019-06-01T08:05:49 MCEBuddy.MetaData.VideoMetaData --> Meta correction results, dont' overwrite title -> False
INFORMATION> 2019-06-01T08:05:49 MCEBuddy.MetaData.VideoMetaData --> Recording Type Show
INFORMATION> 2019-06-01T08:05:49 MCEBuddy.MetaData.VideoMetaData --> Checking TheTVDB
--> Looking for Premiere Year information in text
--> Looking for Episode name match on TVDB using language en
--> Looking for Premiere Year information in text
--> Looking for Episode name match on TVDB using language da
--> Looking for Premiere Year information in text
--> Looking for Episode name match on TVDB using language fi
--> Looking for Premiere Year information in text
--> Looking for Episode name match on TVDB using language nl
--> Looking for Premiere Year information in text
--> Looking for Episode name match on TVDB using language de
--> Looking for Premiere Year information in text
--> Looking for Episode name match on TVDB using language it
--> Looking for Premiere Year information in text
--> Looking for Episode name match on TVDB using language es
--> Looking for Premiere Year information in text
--> Looking for Episode name match on TVDB using language fr
--> Looking for Premiere Year information in text
--> Looking for Episode name match on TVDB using language pl
--> Looking for Premiere Year information in text
--> Looking for Episode name match on TVDB using language hu
--> Looking for Premiere Year information in text
--> Looking for Episode name match on TVDB using language el
--> Looking for Premiere Year information in text
--> Looking for Episode name match on TVDB using language tr
--> Looking for Premiere Year information in text
--> Looking for Episode name match on TVDB using language ru
--> Looking for Premiere Year information in text
--> Looking for Episode name match on TVDB using language he
--> Looking for Premiere Year information in text
--> Looking for Episode name match on TVDB using language ja
--> Looking for Premiere Year information in text
--> Looking for Episode name match on TVDB using language pt
--> Looking for Premiere Year information in text
--> Looking for Episode name match on TVDB using language zh
--> Looking for Premiere Year information in text
--> Looking for Episode name match on TVDB using language cs
--> Looking for Premiere Year information in text
--> Looking for Episode name match on TVDB using language sl
--> Looking for Premiere Year information in text
--> Looking for Episode name match on TVDB using language hr
--> Looking for Premiere Year information in text
--> Looking for Episode name match on TVDB using language ko
--> Looking for Premiere Year information in text
--> Looking for Episode name match on TVDB using language sv
--> Looking for Premiere Year information in text
--> Looking for Episode name match on TVDB using language no
--> Looking for Premiere Year information in text
--> No match found on TVDB for Episode Name
--> No original broadcast date time
--> Subtitle present, cannot match by season or episode number
--> No match found, checking for special characters in the Title
--> No match found on TVDB
WARNING> 2019-06-01T08:05:53 MCEBuddy.MetaData.VideoMetaData --> TheTVDB failed
INFORMATION> 2019-06-01T08:05:53 MCEBuddy.MetaData.VideoMetaData --> Checking TV.com
--> No match found, checking for special characters in the Title
--> No match found on TV.com
--> Invalid original broadcast date to match on TV.com
WARNING> 2019-06-01T08:05:53 MCEBuddy.MetaData.VideoMetaData --> TV.com failed
INFORMATION> 2019-06-01T08:05:53 MCEBuddy.MetaData.VideoMetaData --> Checking TMDB.com
--> No match found, checking for special characters in the Title
--> No match found on TMDB Series
WARNING> 2019-06-01T08:05:53 MCEBuddy.MetaData.VideoMetaData --> TMDB.com failed
INFORMATION> 2019-06-01T08:05:53 MCEBuddy.MetaData.VideoMetaData --> Checking IMDB
--> Searching IMDB Series and overwrite title False
--> Searching IMDB for Series Title match
--> IMDB search titles found -> 45
WARNING> --> Unable to get match from IMDB
--> Invalid original broadcast date to match on IMDB
WARNING> 2019-06-01T08:05:54 MCEBuddy.MetaData.VideoMetaData --> IMDBApi failed
2019-06-01T08:05:54 MCEBuddy.MetaData.VideoMetaData --> Updated Video Tags extracted after downloading details -> 
Title: The Royal Variety Performance
SubTitle: The Royal Variety Performance 2016 - Episode 1
Description: David Walliams hosts this year's Royal Variety Performance. Featuring performances by Barry Gibb, Sting, Robbie Williams, Gary Barlow, Sheridan Smith, Emeli Sande, DNCE and ABC.
Network: ITV
Network Affiliate: 
Parental Rating: 
Media Credits: ITV
Genres: 
Season: 1
Episode: 1
Banner: C:\Program Files\MCEBuddy2x\cache\The Royal Variety Performance 2016 - Episode 1-extract.jpg
Banner URL: 
IMDB Id: 
MovieDB Id: 
TVDB Id: 
Is Show Movie: False
Is Show Sports: False
OriginalBroadcastDateTime: 0001-01-01T00:00:00
RecordedDateTime: 0001-01-01T00:00:00
SeriesPremiereDate: 0001-01-01T00:00:00
CopyProtected: False
SageTV FileID: 
SageTV MediaFileID: 

INFORMATION> 2019-06-01T08:05:54 MCEBuddy.Engine.ConversionJob --> Checking for destination file skip reprocessing
--> Custom Renaming Command -> %showname%\Season %season%\S%season%E%episode% - Episode %episode%
INFORMATION> 2019-06-01T08:05:54 MCEBuddy.Engine.ConversionJob --> Destination file D:\DuckieTVShows\The Royal Variety Performance\Season 1\S1E1 - Episode 1.wmv does not exist, continuing with conversion
INFORMATION> 2019-06-01T08:05:54 MCEBuddy.Engine.ConversionJob --> Running custom commands
--> Custom Renaming Command -> %showname%\Season %season%\S%season%E%episode% - Episode %episode%
--> Custom Renaming Command -> %showname%\Season %season%\S%season%E%episode% - Episode %episode%
2019-06-01T08:05:54 MCEBuddy.Transcode.CustomCommand --> Custom command parameters read ->  
PreCustomCommandPath =  
PreCustomCommandParameters =  
PreCustomCommandHangPeriod = 300 
PreCustomCommandCritical = False 
PreCustomCommandUISession = False 
PreCustomCommandShowWindow = True 
PreCustomCommandExitCodeCheck = False
INFORMATION> 2019-06-01T08:05:54 MCEBuddy.Transcode.CustomCommand --> No custom commands found
2019-06-01T08:05:54 MCEBuddy.Engine.ConversionJob --> Finished pre remuxing custom command, source file size [KB] 1,349,657.00
INFORMATION> 2019-06-01T08:05:54 MCEBuddy.Engine.ConversionJob --> Checking for disk space
2019-06-01T08:05:54 MCEBuddy.Engine.ConversionJob --> File size -> 1.287134 GB
2019-06-01T08:05:54 MCEBuddy.Engine.ConversionJob --> Destination space -> 1535.995 GB
2019-06-01T08:05:54 MCEBuddy.Engine.ConversionJob --> Working space -> 1535.995 GB
2019-06-01T08:05:54 MCEBuddy.Engine.ConversionJob --> Required free space -> 3.217834 GB
2019-06-01T08:05:54 MCEBuddy.Engine.ConversionJob --> Max concurrent conversion jobs -> 1
INFORMATION> 2019-06-01T08:05:54 MCEBuddy.Engine.ConversionJob --> Checking for SRT File
INFORMATION> 2019-06-01T08:05:54 MCEBuddy.Engine.ConversionJob --> Found existing SRT file D:\DuckieTVFiles\The.Royal.Variety.Performance.2016.12.13.EN.SUB.WEBRIP.[MPup]\The.Royal.Variety.Performance.2016.12.13.EN.SUB.WEBRIP.[MPup].srt with language  and saved it
INFORMATION> 2019-06-01T08:05:54 MCEBuddy.Engine.ConversionJob --> Checking for EDL, EDLP, VPRJ or DTB XML files
INFORMATION> 2019-06-01T08:05:54 MCEBuddy.Engine.ConversionJob --> Copying source file to working directory
INFORMATION> 2019-06-01T08:05:54 MCEBuddy.Engine.ConversionJob --> Copying source video to working directory Source:D:\DuckieTVFiles\The.Royal.Variety.Performance.2016.12.13.EN.SUB.WEBRIP.[MPup]\The.Royal.Variety.Performance.2016.12.13.EN.SUB.WEBRIP.[MPup].mp4, Target:D:\Conversion\temp\working0\The.Royal.Variety.Performance.2016.12.13.EN.SUB.WEBRIP.[MPup].mp4
INFORMATION> 2019-06-01T08:05:55 MCEBuddy.Engine.ConversionJob --> Analyzing video information
2019-06-01T08:05:55 MCEBuddy.Engine.ConversionJob --> Found saved SRT files -> D:\Conversion\temp\working0\The.Royal.Variety.Performance.2016.12.13.EN.SUB.WEBRIP.[MPup].srt
INFORMATION> 2019-06-01T08:05:55 MCEBuddy.Engine.ConversionJob --> Writing show information
INFORMATION> 2019-06-01T08:05:55 MCEBuddy.MetaData.VideoMetaData --> About to write MP4 Tags
INFORMATION> 2019-06-01T08:05:55 MCEBuddy.MetaData.VideoMetaData --> Write Tags: MP4 file detected using Apple MPEG4
2019-06-01T08:05:55 MCEBuddy.MetaData.VideoMetaData --> About to write Tags
2019-06-01T08:05:58 MCEBuddy.Engine.ConversionJob --> Finished writing metadata, file size [KB] 1,349,660.00
--> Dumping complete information about the file D:\Conversion\temp\working0\The.Royal.Variety.Performance.2016.12.13.EN.SUB.WEBRIP.[MPup].mp4
2019-06-01T08:05:58 MCEBuddy.AppWrapper.Base --> Launching process C:\Program Files\MCEBuddy2x\ffmpeg\ffprobe.exe
2019-06-01T08:05:58 MCEBuddy.AppWrapper.Base --> Process arguments  -hide_banner -probesize 100M -analyzeduration 300M -i "D:\Conversion\temp\working0\The.Royal.Variety.Performance.2016.12.13.EN.SUB.WEBRIP.[MPup].mp4"
2019-06-01T08:05:58 MCEBuddy.AppWrapper.Base --> UI Session Admin Process : False
2019-06-01T08:05:58 MCEBuddy.AppWrapper.Base --> Setting process priority to AboveNormal
2019-06-01T08:05:58 MCEBuddy.AppWrapper.Base --> [mov,mp4,m4a,3gp,3g2,mj2 @ 0000000001481fc0] stream 0, timescale not set
2019-06-01T08:05:58 MCEBuddy.AppWrapper.Base --> Input #0, mov,mp4,m4a,3gp,3g2,mj2, from 'D:\Conversion\temp\working0\The.Royal.Variety.Performance.2016.12.13.EN.SUB.WEBRIP.[MPup].mp4':
2019-06-01T08:05:58 MCEBuddy.AppWrapper.Base -->   Metadata:
2019-06-01T08:05:58 MCEBuddy.AppWrapper.Base -->     major_brand     : isom
2019-06-01T08:05:58 MCEBuddy.AppWrapper.Base -->     minor_version   : 512
2019-06-01T08:05:58 MCEBuddy.AppWrapper.Base -->     compatible_brands: isomiso2avc1mp41
2019-06-01T08:05:58 MCEBuddy.AppWrapper.Base -->     encoder         : MCEBuddy0
2019-06-01T08:05:58 MCEBuddy.AppWrapper.Base -->     media_type      : 10
2019-06-01T08:05:58 MCEBuddy.AppWrapper.Base -->     network         : ITV
2019-06-01T08:05:58 MCEBuddy.AppWrapper.Base -->     show            : The Royal Variety Performance
2019-06-01T08:05:58 MCEBuddy.AppWrapper.Base -->     season_number   : 1
2019-06-01T08:05:58 MCEBuddy.AppWrapper.Base -->     episode_sort    : 1
2019-06-01T08:05:58 MCEBuddy.AppWrapper.Base -->     episode_id      : The Royal Variety Performance 2016
2019-06-01T08:05:58 MCEBuddy.AppWrapper.Base -->     title           : The Royal Variety Performance 2016 - Episode 1
2019-06-01T08:05:58 MCEBuddy.AppWrapper.Base -->     comment         : David Walliams hosts this year's Royal Variety Performance. Featuring performances by Barry Gibb, Sting, Robbie Williams, Gary Barlow, Sheridan Smith, Emeli Sande, DNCE and ABC.
2019-06-01T08:05:58 MCEBuddy.AppWrapper.Base -->     description     : David Walliams hosts this year's Royal Variety Performance. Featuring performances by Barry Gibb, Sting, Robbie Williams, Gary Barlow, Sheridan Smith, Emeli Sande, DNCE and ABC.
2019-06-01T08:05:58 MCEBuddy.AppWrapper.Base -->     synopsis        : David Walliams hosts this year's Royal Variety Performance. Featuring performances by Barry Gibb, Sting, Robbie Williams, Gary Barlow, Sheridan Smith, Emeli Sande, DNCE and ABC.
2019-06-01T08:05:58 MCEBuddy.AppWrapper.Base -->     lyrics          : David Walliams hosts this year's Royal Variety Performance. Featuring performances by Barry Gibb, Sting, Robbie Williams, Gary Barlow, Sheridan Smith, Emeli Sande, DNCE and ABC.
2019-06-01T08:05:58 MCEBuddy.AppWrapper.Base -->     artist          : ITV
2019-06-01T08:05:58 MCEBuddy.AppWrapper.Base -->     date            : 0001-01-01T12:00:00Z
2019-06-01T08:05:58 MCEBuddy.AppWrapper.Base -->     RecordingTimestamp: 0001-01-01T12:00:00
2019-06-01T08:05:58 MCEBuddy.AppWrapper.Base -->     SeriesPremiere  : 0001-01-01T12:00:00
2019-06-01T08:05:58 MCEBuddy.AppWrapper.Base -->     CopyProtected   : False
2019-06-01T08:05:58 MCEBuddy.AppWrapper.Base -->   Duration: 02:02:01.77, start: 0.000000, bitrate: 1510 kb/s
2019-06-01T08:05:58 MCEBuddy.AppWrapper.Base -->     Stream #0:0(und): Video: h264 (High) (avc1 / 0x31637661), yuv420p, 896x504 [SAR 1:1 DAR 16:9], 1408 kb/s, 25 fps, 25 tbr, 16k tbn, 50 tbc (default)
2019-06-01T08:05:58 MCEBuddy.AppWrapper.Base -->     Metadata:
2019-06-01T08:05:58 MCEBuddy.AppWrapper.Base -->       handler_name    : VideoHandler
2019-06-01T08:05:58 MCEBuddy.AppWrapper.Base -->     Stream #0:1(und): Audio: aac (LC) (mp4a / 0x6134706D), 48000 Hz, stereo, fltp, 96 kb/s (default)
2019-06-01T08:05:58 MCEBuddy.AppWrapper.Base -->     Metadata:
2019-06-01T08:05:58 MCEBuddy.AppWrapper.Base -->       handler_name    : SoundHandler
2019-06-01T08:05:58 MCEBuddy.AppWrapper.Base -->     Stream #0:2: Video: mjpeg (Baseline), yuvj420p(pc, bt470bg/unknown/unknown), 640x360 [SAR 96:96 DAR 16:9], 90k tbr, 90k tbn, 90k tbc
--> Process exited with code 0
INFORMATION> 2019-06-01T08:06:00 MCEBuddy.Engine.ConversionJob --> Renaming file using show information
--> Custom Renaming Command -> %showname%\Season %season%\S%season%E%episode% - Episode %episode%
INFORMATION> --> Rename file to D:\Conversion\temp\working0\S1E1 - Episode 1.mp4
INFORMATION> 2019-06-01T08:06:00 MCEBuddy.Engine.ConversionJob --> Running custom commands
--> Custom Renaming Command -> %showname%\Season %season%\S%season%E%episode% - Episode %episode%
2019-06-01T08:06:00 MCEBuddy.Transcode.CustomCommand --> Custom command parameters read ->  
CustomCommandPath =  
CustomCommandParameters =  
CustomCommandHangPeriod = 300 
CustomCommandCritical = False 
CustomCommandUISession = False 
CustomCommandShowWindow = True 
CustomCommandExitCodeCheck = False
INFORMATION> 2019-06-01T08:06:00 MCEBuddy.Transcode.CustomCommand --> No custom commands found
2019-06-01T08:06:00 MCEBuddy.Engine.ConversionJob --> Finished custom command, file size [KB] 1,349,660.00
INFORMATION> 2019-06-01T08:06:00 MCEBuddy.Engine.ConversionJob --> Moving converted file to destination
INFORMATION> 2019-06-01T08:06:00 MCEBuddy.Engine.ConversionJob --> Moving converted file D:\Conversion\temp\working0\S1E1 - Episode 1.mp4 to D:\DuckieTVShows\The Royal Variety Performance\Season 1\S1E1 - Episode 1.mp4
INFORMATION> 2019-06-01T08:06:00 MCEBuddy.Engine.ConversionJob --> Found SRT file, moving to destination SRT:D:\Conversion\temp\working0\The.Royal.Variety.Performance.2016.12.13.EN.SUB.WEBRIP.[MPup].srt Destination:D:\DuckieTVShows\The Royal Variety Performance\Season 1\S1E1 - Episode 1.srt
INFORMATION> 2019-06-01T08:06:00 MCEBuddy.Engine.ConversionJob --> Running custom commands
--> Custom Renaming Command -> %showname%\Season %season%\S%season%E%episode% - Episode %episode%
2019-06-01T08:06:00 MCEBuddy.Transcode.CustomCommand --> Custom command parameters read ->  
PostCustomCommandPath =  
PostCustomCommandParameters =  
PostCustomCommandHangPeriod = 300 
PostCustomCommandCritical = False 
PostCustomCommandUISession = False 
PostCustomCommandShowWindow = True 
PostCustomCommandExitCodeCheck = False
INFORMATION> 2019-06-01T08:06:00 MCEBuddy.Transcode.CustomCommand --> No custom commands found
2019-06-01T08:06:00 MCEBuddy.Engine.ConversionJob --> Finished end of conversion custom command, file size [KB] 1,349,660.00
INFORMATION> 2019-06-01T08:06:00 MCEBuddy.Engine.ConversionJob --> Success - All done!
INFORMATION> 2019-06-01T08:06:00 MCEBuddy.Engine.ConversionJob --> 
--> Performance Metrics for the Current Conversion
--> 

2019-06-01T08:06:00 MCEBuddy.Engine.ConversionJob --> Original file size [KB] 1,349,657.00
--> Dumping complete information about the file D:\DuckieTVFiles\The.Royal.Variety.Performance.2016.12.13.EN.SUB.WEBRIP.[MPup]\The.Royal.Variety.Performance.2016.12.13.EN.SUB.WEBRIP.[MPup].mp4
2019-06-01T08:06:00 MCEBuddy.AppWrapper.Base --> Launching process C:\Program Files\MCEBuddy2x\ffmpeg\ffprobe.exe
2019-06-01T08:06:00 MCEBuddy.AppWrapper.Base --> Process arguments  -hide_banner -probesize 100M -analyzeduration 300M -i "D:\DuckieTVFiles\The.Royal.Variety.Performance.2016.12.13.EN.SUB.WEBRIP.[MPup]\The.Royal.Variety.Performance.2016.12.13.EN.SUB.WEBRIP.[MPup].mp4"
2019-06-01T08:06:00 MCEBuddy.AppWrapper.Base --> UI Session Admin Process : False
2019-06-01T08:06:00 MCEBuddy.AppWrapper.Base --> Setting process priority to AboveNormal
2019-06-01T08:06:00 MCEBuddy.AppWrapper.Base --> [mov,mp4,m4a,3gp,3g2,mj2 @ 0000000001652100] stream 0, timescale not set
2019-06-01T08:06:00 MCEBuddy.AppWrapper.Base --> Input #0, mov,mp4,m4a,3gp,3g2,mj2, from 'D:\DuckieTVFiles\The.Royal.Variety.Performance.2016.12.13.EN.SUB.WEBRIP.[MPup]\The.Royal.Variety.Performance.2016.12.13.EN.SUB.WEBRIP.[MPup].mp4':
2019-06-01T08:06:00 MCEBuddy.AppWrapper.Base -->   Metadata:
2019-06-01T08:06:00 MCEBuddy.AppWrapper.Base -->     major_brand     : isom
2019-06-01T08:06:00 MCEBuddy.AppWrapper.Base -->     minor_version   : 512
2019-06-01T08:06:00 MCEBuddy.AppWrapper.Base -->     compatible_brands: isomiso2avc1mp41
2019-06-01T08:06:00 MCEBuddy.AppWrapper.Base -->     encoder         : Lavf57.25.100
2019-06-01T08:06:00 MCEBuddy.AppWrapper.Base -->     media_type      : 10
2019-06-01T08:06:00 MCEBuddy.AppWrapper.Base -->     network         : ITV
2019-06-01T08:06:00 MCEBuddy.AppWrapper.Base -->     show            : The Royal Variety Performance
2019-06-01T08:06:00 MCEBuddy.AppWrapper.Base -->     season_number   : 1
2019-06-01T08:06:00 MCEBuddy.AppWrapper.Base -->     episode_sort    : 1
2019-06-01T08:06:00 MCEBuddy.AppWrapper.Base -->     episode_id      : The Royal Variety Performance 2016
2019-06-01T08:06:00 MCEBuddy.AppWrapper.Base -->     title           : The Royal Variety Performance 2016 - Episode 1
2019-06-01T08:06:00 MCEBuddy.AppWrapper.Base -->     comment         : David Walliams hosts this year's Royal Variety Performance. Featuring performances by Barry Gibb, Sting, Robbie Williams, Gary Barlow, Sheridan Smith, Emeli Sande, DNCE and ABC.
2019-06-01T08:06:00 MCEBuddy.AppWrapper.Base -->     description     : David Walliams hosts this year's Royal Variety Performance. Featuring performances by Barry Gibb, Sting, Robbie Williams, Gary Barlow, Sheridan Smith, Emeli Sande, DNCE and ABC.
2019-06-01T08:06:00 MCEBuddy.AppWrapper.Base -->     synopsis        : David Walliams hosts this year's Royal Variety Performance. Featuring performances by Barry Gibb, Sting, Robbie Williams, Gary Barlow, Sheridan Smith, Emeli Sande, DNCE and ABC.
2019-06-01T08:06:00 MCEBuddy.AppWrapper.Base -->     lyrics          : David Walliams hosts this year's Royal Variety Performance. Featuring performances by Barry Gibb, Sting, Robbie Williams, Gary Barlow, Sheridan Smith, Emeli Sande, DNCE and ABC.
2019-06-01T08:06:00 MCEBuddy.AppWrapper.Base -->     artist          : ITV
2019-06-01T08:06:00 MCEBuddy.AppWrapper.Base -->   Duration: 02:02:01.77, start: 0.000000, bitrate: 1510 kb/s
2019-06-01T08:06:00 MCEBuddy.AppWrapper.Base -->     Stream #0:0(und): Video: h264 (High) (avc1 / 0x31637661), yuv420p, 896x504 [SAR 1:1 DAR 16:9], 1408 kb/s, 25 fps, 25 tbr, 16k tbn, 50 tbc (default)
2019-06-01T08:06:00 MCEBuddy.AppWrapper.Base -->     Metadata:
2019-06-01T08:06:00 MCEBuddy.AppWrapper.Base -->       handler_name    : VideoHandler
2019-06-01T08:06:00 MCEBuddy.AppWrapper.Base -->     Stream #0:1(und): Audio: aac (LC) (mp4a / 0x6134706D), 48000 Hz, stereo, fltp, 96 kb/s (default)
2019-06-01T08:06:00 MCEBuddy.AppWrapper.Base -->     Metadata:
2019-06-01T08:06:00 MCEBuddy.AppWrapper.Base -->       handler_name    : SoundHandler
2019-06-01T08:06:00 MCEBuddy.AppWrapper.Base -->     Stream #0:2: Video: mjpeg (Baseline), yuvj420p(pc, bt470bg/unknown/unknown), 640x360 [SAR 96:96 DAR 16:9], 90k tbr, 90k tbn, 90k tbc
--> Process exited with code 0
--> 

--> <Start At Date/Time>	<Duration (hh:mm:ss)>		<Activity>
--> <06/01/2019 08:05:49>	<00:00:00>		<Running custom commands>
--> <06/01/2019 08:05:49>	<00:00:05>		<Getting show information and banner from Internet sources>
--> <06/01/2019 08:05:54>	<00:00:00>		<Running custom commands>
--> <06/01/2019 08:05:54>	<00:00:00>		<Checking for disk space>
--> <06/01/2019 08:05:54>	<00:00:00>		<Copying source file to working directory>
--> <06/01/2019 08:05:55>	<00:00:00>		<Analyzing video information>
--> <06/01/2019 08:05:55>	<00:00:05>		<Writing show information>
--> <06/01/2019 08:06:00>	<00:00:00>		<Renaming file using show information>
--> <06/01/2019 08:06:00>	<00:00:00>		<Running custom commands>
--> <06/01/2019 08:06:00>	<00:00:00>		<Moving converted file to destination>
--> <06/01/2019 08:06:00>	<00:00:00>		<Running custom commands>
--> <06/01/2019 08:06:00>	<00:00:00>		<Success - All done!>
--> 

INFORMATION> --> Total time taken by conversion (hh:mm:ss) -> 00:00:11
(RBoy) #2

From the metadata stored in your MP4 file. It has seasons and episode info saved and reported as season 1/episode 1.

2019-06-01T08:05:49 MCEBuddy.MetaData.VideoMetaData --> Read Tags: MPEG4 file detected using AppleTag
2019-06-01T08:05:49 MCEBuddy.MetaData.VideoMetaData --> Looking for Season/Episode information in text
2019-06-01T08:05:49 MCEBuddy.MetaData.VideoMetaData --> Extracted Generic Tags: Title: The Royal Variety Performance
SubTitle: The Royal Variety Performance 2016 - Episode 1
Description: David Walliams hosts this year’s Royal Variety Performance. Featuring performances by Barry Gibb, Sting, Robbie Williams, Gary Barlow, Sheridan Smith, Emeli Sande, DNCE and ABC.
Network: ITV
Network Affiliate:
Parental Rating:
Media Credits: ITV
Genres:
Season: 1
Episode: 1

Banner: C:\Program Files\MCEBuddy2x\cache\The Royal Variety Performance 2016 - Episode 1-extract.jpg

(John) #3

Would it be safe to assume that that’s what Season and Episode default to in whatever it was created with when not set? Lots of data in the filename to pull but perhaps MCEBuddy only looks at it if it doesn’t find metadata in the file metadata?

Thanks.

JR

(RBoy) #4

It first extracts from the embedded metadata, then from the filename and finally supplements it from the internet. If there’s no episode/season found in the metadata it’ll be shown as 0.

See this topic for details on order of extraction:

You can correct the Title from the Conversion Task -> Expert Settings page using the metadata correction options.

(John) #6

I may be missing it, however I go to the GUI, click one of the conversion tasks, Click Change. Don’ see an Expert Settings, but see Advanced Settings so expand that. See a renaming area but not a metadata correction options area.

Thanks.

JR

(RBoy) #7