File not in fall back destination

Strange issue that I can’t nail down. Conversion works fine, but access was not granted to my server (I forgot to update permissions).

Ok, so the finished file is supposed to be dumped into the source folder as fallback, but it is not there. Full coversion log uploaded.

INFORMATION> 2020-05-25T09:59:40 MCEBuddy.Engine.ConversionJob --> Moving converted file to destination

INFORMATION> 2020-05-25T09:59:51 MCEBuddy.Engine.ConversionJob --> Moving converted file T:\TempMcebuddy\working0\The Wiz () - (TVmceb).mp4 to \coreybuntu\BuntuTVDVR\HTPConverts\The Wiz\The Wiz () - (TVmceb).mp4

ERROR> --> Unable to move file T:\TempMcebuddy\working0\The Wiz () - (TVmceb).mp4 to \coreybuntu\BuntuTVDVR\HTPConverts

Error :System.UnauthorizedAccessException: Access to the path is denied.
at System.IO.__Error.WinIOError(Int32 errorCode, String maybeFullPath)

INFORMATION> 2020-05-25T09:59:52 MCEBuddy.Engine.ConversionJob --> Fallback to source path
WARNING> --> Fallback to Source Path is enabled, trying to move directory to source path -> T:\TempMcebuddy\working0

INFORMATION> 2020-05-25T09:59:52 MCEBuddy.Engine.ConversionJob --> Moving converted file T:\TempMcebuddy\working0\The Wiz () - (TVmceb).mp4 to T:\TempMcebuddy\working0\The Wiz\The Wiz () - (TVmceb).mp4
The Wiz (1978).ts-Movie to MP4-2020-05-25T08-26-16.4270312-04-00.log (2.4 MB)

Tried again with a TV series instead of a movie. When I search my entire PC, I can not find the .mp4 file that was output.

Need to figure out why I can’t access my ubuntu server, too. Tried updating the samba configuration, but didn’t help. Thinking I might create a new user and use those credentials to see if anything changes.

2020-05-25--> Process exited with code 0
2020-05-25T22:46:03 MCEBuddy.Transcode.ConvertWithHandbrake --> Conversion: Percentage Complete 100
2020-05-25T22:46:03 MCEBuddy.Transcode.ConvertWithHandbrake --> Original file size [KB] 2,775,310.00
2020-05-25T22:46:03 MCEBuddy.Transcode.ConvertWithHandbrake --> Finished video conversion, file size [KB] 140,982.00
INFORMATION> 2020-05-25T22:46:03 MCEBuddy.Transcode.ConvertWithHandbrake --> Correcting Audio Delay if required
2020-05-25T22:46:03 MCEBuddy.Transcode.ConvertWithHandbrake --> Fix Audio Delay: Percentage Complete 100
2020-05-25T22:46:03 MCEBuddy.Transcode.ConvertWithHandbrake --> Finished fixing audio delay, file size [KB] 140,982.00
INFORMATION> 2020-05-25T22:46:03 MCEBuddy.Transcode.ConvertWithHandbrake --> Remuxing video if required
2020-05-25T22:46:03 MCEBuddy.Transcode.RemuxExt --> Remux To : 
2020-05-25T22:46:03 MCEBuddy.Transcode.RemuxExt --> Extension : .mp4
2020-05-25T22:46:03 MCEBuddy.Transcode.ConvertWithHandbrake --> Conversion Remux: Percentage Complete 100
2020-05-25T22:46:03 MCEBuddy.Transcode.ConvertWithHandbrake --> Finished conversion remuxing video, file size [KB] 140,982.00
2020-05-25T22:46:03 MCEBuddy.Transcode.Convert --> Successfully converted file Billions.S05E03.Beg, Bribe, Bully.ts using profile MP4 Normal
INFORMATION> 2020-05-25T22:46:03 MCEBuddy.Engine.ConversionJob --> Converted File : D:\Temp\working0\Billions.S05E03.Beg, Bribe, Bully.mp4
2020-05-25T22:46:03 MCEBuddy.Engine.ConversionJob --> Finished conversion, file size [KB] 140,982.00
INFORMATION> 2020-05-25T22:46:03 MCEBuddy.Engine.ConversionJob --> Checking if commercials were found
INFORMATION> 2020-05-25T22:46:03 MCEBuddy.Engine.ConversionJob --> Commercials not found or cutting already completed
INFORMATION> 2020-05-25T22:46:03 MCEBuddy.Engine.ConversionJob --> Writing show information
INFORMATION> 2020-05-25T22:46:03 MCEBuddy.MetaData.VideoMetaData --> About to write MP4 Tags
2020-05-25T22:46:03 MCEBuddy.MetaData.VideoMetaData --> About to write MP4 Tags
2020-05-25T22:46:03 MCEBuddy.AppWrapper.AtomicParsley --> Launching process C:\Program Files\MCEBuddy2x\AtomicParsley\AtomicParsley.exe
2020-05-25T22:46:03 MCEBuddy.AppWrapper.AtomicParsley --> Process arguments "D:\Temp\working0\Billions.S05E03.Beg, Bribe, Bully.mp4" --overWrite --title "S5E3 - Beg, Bribe, Bully" --TVShowName "Billions" --stik "TV Show" --TVEpisode "Beg, Bribe, Bully" --TVSeasonNum "5" --TVEpisodeNum "3" --TVNetwork "Showtime HD (Pacific)" --genre "Drama" --year "2020-05-17T08:00:00Z" --description "Chuck returns to his alma mater to pursue an opportunity; Axe's big venture is sidelined by a family crisis; Taylor asserts independence with a risky play; Chuck puts Wendy in an awkward position." --longdesc "Chuck returns to his alma mater to pursue an opportunity; Axe's big venture is sidelined by a family crisis; Taylor asserts independence with a risky play; Chuck puts Wendy in an awkward position." --comment "Chuck returns to his alma mater to pursue an opportunity; Axe's big venture is sidelined by a family crisis; Taylor asserts independence with a risky play; Chuck puts Wendy in an awkward position." --artwork "C:\Program Files\MCEBuddy2x\cache\Billions.jpg" --encodingTool "MCEBuddy"
2020-05-25T22:46:03 MCEBuddy.AppWrapper.AtomicParsley --> UI Session Admin Process : False
2020-05-25T22:46:03 MCEBuddy.AppWrapper.AtomicParsley --> Setting process priority to Normal
2020-05-25T22:46:03 MCEBuddy.AppWrapper.AtomicParsley -->  Started writing to temp file.
2020-05-25T22:46:03 MCEBuddy.AppWrapper.AtomicParsley -->  Progress: >  0% -------------------------------------------------------|
2020-05-25T22:46:03 MCEBuddy.AppWrapper.AtomicParsley -->  Progress: >  0% -------------------------------------------------------|
2020-05-25T22:46:03 MCEBuddy.AppWrapper.AtomicParsley -->  Progress: =>  1% ------------------------------------------------------|
2020-05-25T22:46:03 MCEBuddy.AppWrapper.AtomicParsley -->  Progress: =>  1% ------------------------------------------------------|
2020-05-25T22:46:03 MCEBuddy.AppWrapper.AtomicParsley -->  Progress: =>  2% ------------------------------------------------------|
2020-05-25T22:46:03 MCEBuddy.AppWrapper.AtomicParsley -->  Progress: =>  2% ------------------------------------------------------|
2020-05-25T22:46:03 MCEBuddy.AppWrapper.AtomicParsley -->  Progress: =>  2% ------------------------------------------------------|
2020-05-25T22:46:03 MCEBuddy.AppWrapper.AtomicParsley -->  Progress: =>  2% ------------------------------------------------------|
2020-05-25T22:46:03 MCEBuddy.AppWrapper.AtomicParsley -->  Progress: =====================> 38% ----------------------------------|
2020-05-25T22:46:03 MCEBuddy.AppWrapper.AtomicParsley -->  Progress: =============================================> 82% ----------|
2020-05-25T22:46:03 MCEBuddy.AppWrapper.AtomicParsley -->  Finished writing to temp file.
--> Process exited with code 0
2020-05-25T22:46:06 MCEBuddy.Engine.ConversionJob --> Finished writing metadata, file size [KB] 141,441.00
--> Dumping complete information about the file D:\Temp\working0\Billions.S05E03.Beg, Bribe, Bully.mp4
2020-05-25T22:46:06 MCEBuddy.AppWrapper.Base --> Launching process C:\Program Files\MCEBuddy2x\ffmpeg\ffprobe.exe
2020-05-25T22:46:06 MCEBuddy.AppWrapper.Base --> Process arguments  -hide_banner -probesize 100M -analyzeduration 300M -i "D:\Temp\working0\Billions.S05E03.Beg, Bribe, Bully.mp4"
2020-05-25T22:46:06 MCEBuddy.AppWrapper.Base --> UI Session Admin Process : False
2020-05-25T22:46:06 MCEBuddy.AppWrapper.Base --> Setting process priority to Normal
2020-05-25T22:46:06 MCEBuddy.AppWrapper.Base --> [mov,mp4,m4a,3gp,3g2,mj2 @ 0000023efe76c320] stream 0, timescale not set
2020-05-25T22:46:06 MCEBuddy.AppWrapper.Base --> Input #0, mov,mp4,m4a,3gp,3g2,mj2, from 'D:\Temp\working0\Billions.S05E03.Beg, Bribe, Bully.mp4':
2020-05-25T22:46:06 MCEBuddy.AppWrapper.Base -->   Metadata:
2020-05-25T22:46:06 MCEBuddy.AppWrapper.Base -->     major_brand     : mp42
2020-05-25T22:46:06 MCEBuddy.AppWrapper.Base -->     minor_version   : 512
2020-05-25T22:46:06 MCEBuddy.AppWrapper.Base -->     compatible_brands: isomiso2avc1mp41
2020-05-25T22:46:06 MCEBuddy.AppWrapper.Base -->     creation_time   : 2020-05-26T02:12:53.000000Z
2020-05-25T22:46:06 MCEBuddy.AppWrapper.Base -->     encoder         : MCEBuddy
2020-05-25T22:46:06 MCEBuddy.AppWrapper.Base -->     title           : S5E3 - Beg, Bribe, Bully
2020-05-25T22:46:06 MCEBuddy.AppWrapper.Base -->     show            : Billions
2020-05-25T22:46:06 MCEBuddy.AppWrapper.Base -->     media_type      : 10
2020-05-25T22:46:06 MCEBuddy.AppWrapper.Base -->     episode_id      : Beg, Bribe, Bully
2020-05-25T22:46:06 MCEBuddy.AppWrapper.Base -->     season_number   : 5
2020-05-25T22:46:06 MCEBuddy.AppWrapper.Base -->     episode_sort    : 3
2020-05-25T22:46:06 MCEBuddy.AppWrapper.Base -->     network         : Showtime HD (Pacific)
2020-05-25T22:46:06 MCEBuddy.AppWrapper.Base -->     genre           : Drama
2020-05-25T22:46:06 MCEBuddy.AppWrapper.Base -->     date            : 2020-05-17T08:00:00Z
2020-05-25T22:46:06 MCEBuddy.AppWrapper.Base -->     description     : Chuck returns to his alma mater to pursue an opportunity; Axe's big venture is sidelined by a family crisis; Taylor asserts independence with a risky play; Chuck puts Wendy in an awkward position.
2020-05-25T22:46:06 MCEBuddy.AppWrapper.Base -->     synopsis        : Chuck returns to his alma mater to pursue an opportunity; Axe's big venture is sidelined by a family crisis; Taylor asserts independence with a risky play; Chuck puts Wendy in an awkward position.
2020-05-25T22:46:06 MCEBuddy.AppWrapper.Base -->     comment         : Chuck returns to his alma mater to pursue an opportunity; Axe's big venture is sidelined by a family crisis; Taylor asserts independence with a risky play; Chuck puts Wendy in an awkward position.
2020-05-25T22:46:06 MCEBuddy.AppWrapper.Base -->   Duration: 00:54:00.79, start: 0.000000, bitrate: 357 kb/s
2020-05-25T22:46:06 MCEBuddy.AppWrapper.Base -->     Stream #0:0(und): Video: h264 (High) (avc1 / 0x31637661), yuv420p(tv, bt709), 480x270 [SAR 1:1 DAR 16:9], 92 kb/s, 29.97 fps, 29.97 tbr, 90k tbn, 180k tbc (default)
2020-05-25T22:46:06 MCEBuddy.AppWrapper.Base -->     Metadata:
2020-05-25T22:46:06 MCEBuddy.AppWrapper.Base -->       creation_time   : 2020-05-26T02:12:53.000000Z
2020-05-25T22:46:06 MCEBuddy.AppWrapper.Base -->       handler_name    : VideoHandler
2020-05-25T22:46:06 MCEBuddy.AppWrapper.Base -->     Stream #0:1(eng): Audio: aac (LC) (mp4a / 0x6134706D), 48000 Hz, stereo, fltp, 256 kb/s (default)
2020-05-25T22:46:06 MCEBuddy.AppWrapper.Base -->     Metadata:
2020-05-25T22:46:06 MCEBuddy.AppWrapper.Base -->       creation_time   : 2020-05-26T02:12:53.000000Z
2020-05-25T22:46:06 MCEBuddy.AppWrapper.Base -->       handler_name    : Stereo
2020-05-25T22:46:06 MCEBuddy.AppWrapper.Base -->     Stream #0:2: Video: mjpeg, yuvj420p(pc, bt470bg/unknown/unknown), 680x1000 [SAR 1:1 DAR 17:25], 90k tbr, 90k tbn, 90k tbc
--> Process exited with code 0
INFORMATION> 2020-05-25T22:46:08 MCEBuddy.Engine.ConversionJob --> Renaming file using show information
--> Custom Renaming Command -> \%showname%\Season %season%##\%showname% - S%season%##E%episode%## - %episodename%
INFORMATION> --> Rename file to D:\Temp\working0\Billions - S05E03 - Beg, Bribe, Bully.mp4
INFORMATION> 2020-05-25T22:46:08 MCEBuddy.Engine.ConversionJob --> Running custom commands
--> Custom Renaming Command -> \%showname%\Season %season%##\%showname% - S%season%##E%episode%## - %episodename%
2020-05-25T22:46:08 MCEBuddy.Transcode.CustomCommand --> Custom command parameters read ->  
CustomCommandPath =  
CustomCommandParameters =  
CustomCommandHangPeriod = 300 
CustomCommandCritical = False 
CustomCommandUISession = False 
CustomCommandShowWindow = True 
CustomCommandExitCodeCheck = False
INFORMATION> 2020-05-25T22:46:08 MCEBuddy.Transcode.CustomCommand --> No custom commands found
2020-05-25T22:46:08 MCEBuddy.Engine.ConversionJob --> Finished custom command, file size [KB] 141,441.00
INFORMATION> 2020-05-25T22:46:08 MCEBuddy.Engine.ConversionJob --> Moving converted file to destination
INFORMATION> 2020-05-25T22:46:22 MCEBuddy.Engine.ConversionJob --> Moving converted file D:\Temp\working0\Billions - S05E03 - Beg, Bribe, Bully.mp4 to \\coreybuntu\BuntuTVDVR\HTPConverts\Billions\Season 05\Billions - S05E03 - Beg, Bribe, Bully.mp4
ERROR> --> Unable to move file D:\Temp\working0\Billions - S05E03 - Beg, Bribe, Bully.mp4 to \\coreybuntu\BuntuTVDVR\HTPConverts
Error :System.UnauthorizedAccessException: Access to the path is denied.
   at System.IO.__Error.WinIOError(Int32 errorCode, String maybeFullPath)
   at System.IO.File.InternalMove(String sourceFileName, String destFileName, Boolean checkHost)
   at MCEBuddy.Util.FileIO.MoveAndInheritPermissions(String source, String destination, Boolean overwriteDestination)
   at MCEBuddy.Engine.ConversionJob.MoveConvertedFile(String subDestinationPath, Log jobLog)
INFORMATION> 2020-05-25T22:46:23 MCEBuddy.Engine.ConversionJob --> Fallback to source path
WARNING> --> Fallback to Source Path is enabled, trying to move directory to source path -> D:\Temp\working0
INFORMATION> 2020-05-25T22:46:23 MCEBuddy.Engine.ConversionJob --> Moving converted file D:\Temp\working0\Billions - S05E03 - Beg, Bribe, Bully.mp4  to D:\Temp\working0\Billions\Season 05\Billions - S05E03 - Beg, Bribe, Bully.mp4
INFORMATION> 2020-05-25T22:46:23 MCEBuddy.Engine.ConversionJob --> Running custom commands
--> Custom Renaming Command -> \%showname%\Season %season%##\%showname% - S%season%##E%episode%## - %episodename%
2020-05-25T22:46:23 MCEBuddy.Transcode.CustomCommand --> Custom command parameters read ->  
PostCustomCommandPath =  
PostCustomCommandParameters =  
PostCustomCommandHangPeriod = 300 
PostCustomCommandCritical = False 
PostCustomCommandUISession = False 
PostCustomCommandShowWindow = True 
PostCustomCommandExitCodeCheck = False
INFORMATION> 2020-05-25T22:46:23 MCEBuddy.Transcode.CustomCommand --> No custom commands found
2020-05-25T22:46:23 MCEBuddy.Engine.ConversionJob --> Finished end of conversion custom command, file size [KB] 141,441.00
INFORMATION> 2020-05-25T22:46:23 MCEBuddy.Engine.ConversionJob --> Success - All done!
INFORMATION> 2020-05-25T22:46:24 MCEBuddy.Engine.ConversionJob --> 
--> Performance Metrics for the Current Conversion
--> 

--> Working video pre-conversion duration (hh:mm:ss) -> 00:54:01
2020-05-25T22:46:24 MCEBuddy.Engine.ConversionJob --> Original file size [KB] 3,118,357.00
--> Dumping complete information about the file D:\Recorded TV\ArchivedTV\Billions.S05E03.Beg, Bribe, Bully.ts
2020-05-25T22:46:24 MCEBuddy.AppWrapper.Base --> Launching process C:\Program Files\MCEBuddy2x\ffmpeg\ffprobe.exe
2020-05-25T22:46:24 MCEBuddy.AppWrapper.Base --> Process arguments  -hide_banner -probesize 100M -analyzeduration 300M -i "D:\Recorded TV\ArchivedTV\Billions.S05E03.Beg, Bribe, Bully.ts"
2020-05-25T22:46:24 MCEBuddy.AppWrapper.Base --> UI Session Admin Process : False
2020-05-25T22:46:24 MCEBuddy.AppWrapper.Base --> Setting process priority to Normal
2020-05-25T22:46:25 MCEBuddy.AppWrapper.Base --> [mpeg2video @ 00000200616ae9c0] Invalid frame dimensions 0x0.
2020-05-25T22:46:25 MCEBuddy.AppWrapper.Base -->     Last message repeated 1 times
2020-05-25T22:46:25 MCEBuddy.AppWrapper.Base --> [mpegts @ 00000200616ac360] PES packet size mismatch
2020-05-25T22:46:25 MCEBuddy.AppWrapper.Base -->     Last message repeated 1 times
2020-05-25T22:46:25 MCEBuddy.AppWrapper.Base --> Input #0, mpegts, from 'D:\Recorded TV\ArchivedTV\Billions.S05E03.Beg, Bribe, Bully.ts':
2020-05-25T22:46:25 MCEBuddy.AppWrapper.Base -->   Duration: 01:02:59.70, start: 66282.787344, bitrate: 6758 kb/s
2020-05-25T22:46:25 MCEBuddy.AppWrapper.Base -->   Program 674 
2020-05-25T22:46:25 MCEBuddy.AppWrapper.Base -->     Stream #0:0[0xa1](spa): Audio: ac3 (AC-3 / 0x332D4341), 48000 Hz, stereo, fltp, 128 kb/s
2020-05-25T22:46:25 MCEBuddy.AppWrapper.Base -->     Stream #0:1[0x1a55]: Video: mpeg2video (Main) ([2][0][0][0] / 0x0002), yuv420p(tv, top first), 1920x1080 [SAR 1:1 DAR 16:9], Closed Captions, 29.97 fps, 29.97 tbr, 90k tbn, 59.94 tbc
2020-05-25T22:46:25 MCEBuddy.AppWrapper.Base -->     Stream #0:2[0x1a56](eng): Audio: ac3 (AC-3 / 0x332D4341), 48000 Hz, 5.1(side), fltp, 384 kb/s
--> Process exited with code 0
--> 

--> <Start At Date/Time>	<Duration (hh:mm:ss)>		<Activity>
--> <05/25/2020 21:58:26>	<00:00:00>		<Running custom commands>
--> <05/25/2020 21:58:26>	<00:00:10>		<Getting show information and banner from Internet sources>
--> <05/25/2020 21:58:37>	<00:00:00>		<Running custom commands>
--> <05/25/2020 21:58:37>	<00:00:02>		<Checking for disk space>
--> <05/25/2020 21:58:39>	<00:02:36>		<Copying source file to working directory>
--> <05/25/2020 22:01:16>	<00:00:00>		<Trimming video recording>
--> <05/25/2020 22:01:16>	<00:00:13>		<Analyzing video information>
--> <05/25/2020 22:01:30>	<00:07:01>		<Advertisement scan>
--> <05/25/2020 22:08:31>	<00:00:00>		<Running custom commands>
--> <05/25/2020 22:08:31>	<00:01:48>		<Removing commercials>
--> <05/25/2020 22:10:20>	<00:00:17>		<Analyzing video information>
--> <05/25/2020 22:10:38>	<00:02:01>		<Analyzing video information>
--> <05/25/2020 22:12:39>	<00:33:23>		<Converting>
--> <05/25/2020 22:46:03>	<00:00:05>		<Writing show information>
--> <05/25/2020 22:46:08>	<00:00:00>		<Renaming file using show information>
--> <05/25/2020 22:46:08>	<00:00:00>		<Running custom commands>
--> <05/25/2020 22:46:08>	<00:00:15>		<Moving converted file to destination>
--> <05/25/2020 22:46:23>	<00:00:00>		<Fallback to source path>
--> <05/25/2020 22:46:23>	<00:00:00>		<Running custom commands>
--> <05/25/2020 22:46:23>	<00:00:00>		<Success - All done!>
--> 

INFORMATION> --> Total time taken by conversion (hh:mm:ss) -> 00:47:57

Pasting lengthy logs can make it difficult to read, it’s better to attach the log files or put the logs in code brackets.

I would start by updating to the current 2.5.4 BETA version:

INFORMATION> --> MCEBuddy Build Version : 2.4.9.1
INFORMATION> --> MCEBuddy Build Date : 11/16/2018 16:40:14

Sorry 'bout that. I had uploaded the full log in my previous post. This one seemed shorter, but obviously not short enough to be useful. Will update to the latest version.

Thanks.