Audio Description Project (ADP) Rolling out

Hello Gents,

The networks are starting to roll out ADP (https://adp.acb.org/) with programs. This is an audio track which contains descriptive speech for scenes that blind or partially blind people will find helpful when viewing these shows.

The problem, there appears to be no labeling. From La Brea Episode 8, the English and Spanish audio streams can be found. With ADP added to Episode 9, I see no labels. At playback, the first stream is the ADP enhanced.

Has anyone else found a way to label these streams or even look at the TS files to see if in fact, the labels were left out?

La Brea E08 Processing…

Stream #0:0[0x100]: Video: mpeg2video (Main) ([2][0][0][0] / 0x0002), yuv420p(tv, top first), 1920x1080 [SAR 1:1 DAR 16:9], Closed Captions, 29.97 fps, 29.97 tbr, 90k tbn, 59.94 tbc
Stream #0:1[0x101] (eng): Audio: ac3 ([129][0][0][0] / 0x0081), 48000 Hz, 5.1(side), fltp, 384 kb/s
Stream #0:2[0x102] (spa): Audio: ac3 ([129][0][0][0] / 0x0081), 48000 Hz, stereo, fltp, 192 kb/s

Episode 9 Processing…

Stream #0:0[0x100]: Video: mpeg2video (Main) ([2][0][0][0] / 0x0002), yuv420p(tv, top first), 1920x1080 [SAR 1:1 DAR 16:9], Closed Captions, 29.97 fps, 29.97 tbr, 90k tbn, 59.94 tbc
Stream #0:1[0x101]: Audio: ac3 ([129][0][0][0] / 0x0081), 48000 Hz, stereo, fltp, 192 kb/s
Stream #0:2[0x102]: Audio: ac3 ([129][0][0][0] / 0x0081), 48000 Hz, 5.1(side), fltp, 384 kb/s

Two things happened here.

1) Language tags were dropped
2) Main audio was dropped to the 2nd audio stream